conanlcg
超级版主

[2011] [欧美] [惊悚] [BD-1080P] 杀手乔/杀手乔一下 Killer.Joe.2011.LiMiTED.1080p.BluRay.x264-CiNEFiLE 7.94GB

-->

帖子完整标题:杀手乔/杀手乔一下 Killer.Joe.2011.LiMiTED.1080p.BluRay.x264-CiNEFiLE 7.94GB




◎译  名 杀手乔 / 杀手乔一下(台)
◎片  名 Killer Joe
◎年  代 2011
◎产  地 美国
◎类  别 惊悚 / 犯罪
◎语  言 英语
◎上映日期 2012-07-27(美国)
◎IMDb评分 6.7/10 from 67848 users
◎IMDb链接 http://www.imdb.com/title/tt1726669
◎豆瓣评分 6.6/10 from 10633 users
◎豆瓣链接 https://movie.douban.com/subject/5318758/
◎片  长 102分钟
◎导  演 威廉·弗莱德金 William Friedkin
◎编  剧 崔西·莱茨 Tracy Letts
◎主  演 马修·麦康纳 Matthew McConaughey
      埃米尔·赫斯基 Emile Hirsch
      朱诺·坦普尔 Juno Temple
      托马斯·哈登·丘奇 Thomas Haden Church
      吉娜·格申 Gina Gershon
      马克·麦考利 Marc Macaulay
      Gralen Bryant Banks
      Carol Sutton
      Danny Epper
      Jeff Galpin
      Scott A. Martin
      Gregory C. Bachaud
      Charley Vance


◎标  签 美国 | 犯罪 | 黑色电影 | 剧情 | 美国电影 | 2012 | 2011 | WilliamFriedkin

◎简  介

  22岁的毒贩克里斯(埃米尔·赫斯基 Emile Hirsch 饰)欠了一屁股债,高利贷主正威胁要追杀他。为保性命,他想到了唯一的办法,就是谋杀亲母阿黛尔以赚取高额保险,并联合了父亲、继母和妹妹多蒂(朱诺·坦普尔 Juno Temple 饰)一起瓜分这笔横财。然而克里斯不愿自己动手,遂瞄准了专业杀手乔(马修·麦康纳 Matthew McConaughey 饰),然而乔只做买卖不做慈善,筹不够钱不会动手。束手无策之时,克里斯只好先把妹妹暂时当“订金”交给乔。本以为万事办妥,只等坐收巨款的克里斯,却没想到事情竟往戏剧化的方向发展而去……
本片曾获土星奖最佳独立电影、最佳男主角、最佳导演、最佳女配角、最佳编剧奖。

◎获奖情况

  第68届威尼斯电影节(2011)
  金狮奖(提名) 威廉·弗莱德金
  金鼠奖 威廉·弗莱德金

  第28届美国独立精神奖(2013)
  最佳男主角(提名) 马修·麦康纳

  第17届圣地亚哥影评人协会奖(2012)
  最佳男配角(提名) 马修·麦康纳



Video
ID : 1
Format : AVC
Format/Info : Advanced Video Codec
Format profile : [email protected]
Format settings, CABAC : Yes
Format settings, ReFrames : 4 frames
Codec ID : V_MPEG4/ISO/AVC
Duration : 1h 42mn
Bit rate : 9 600 Kbps
Width : 1 920 pixels
Height : 1 040 pixels
Display aspect ratio : 1.85:1
Frame rate mode : Constant
Frame rate : 23.976 (24000/1001) fps
Color space : YUV
Chroma subsampling : 4:2:0
Bit depth : 8 bits
Scan type : Progressive
Bits/(Pixel*Frame) : 0.201
Stream size : 6.70 GiB (84%)
Writing library : x264 core 128 r2216 198a7ea
Encoding settings : cabac=1 / ref=4 / deblock=1:-3:-3 / analyse=0x3:0x133 / me=umh / subme=7 / psy=1 / psy_rd=1.00:0.15 / mixed_ref=1 / me_range=16 / chroma_me=1 / trellis=1 / 8x8dct=1 / cqm=0 / deadzone=21,11 / fast_pskip=0 / chroma_qp_offset=-3 / threads=12 / lookahead_threads=2 / sliced_threads=0 / nr=0 / decimate=1 / interlaced=0 / bluray_compat=0 / constrained_intra=0 / bframes=3 / b_pyramid=2 / b_adapt=1 / b_bias=0 / direct=3 / weightb=1 / open_gop=0 / weightp=2 / keyint=240 / keyint_min=23 / scenecut=40 / intra_refresh=0 / rc_lookahead=40 / rc=2pass / mbtree=1 / bitrate=9600 / ratetol=1.0 / qcomp=0.60 / qpmin=0 / qpmax=69 / qpstep=4 / cplxblur=20.0 / qblur=0.5 / ip_ratio=1.40 / aq=1:1.00
Language : English
Default : Yes
Forced : No

Audio
ID : 2
Format : DTS
Format/Info : Digital Theater Systems
Mode : 16
Format settings, Endianness : Big
Codec ID : A_DTS
Duration : 1h 42mn
Bit rate mode : Constant
Bit rate : 1 509 Kbps
Channel(s) : 6 channels
Channel positions : Front: L C R, Side: L R, LFE
Sampling rate : 48.0 KHz
Frame rate : 93.750 fps (512 spf)
Bit depth : 24 bits
Compression mode : Lossy
Stream size : 1.08 GiB (14%)
Language : English
Default : Yes
Forced : No





1 个附件 售价 大小 下载 时间

Killer.Joe.2011.LiMiTED.1080p.BluRay.x264-CiNEFiLE.torrent 0 金币 80.06K 777 次 7天前

#1楼
发帖时间:2019-06-13 02:25:21   |   回复数:2
liyouchai
超凡入圣№
谢谢楼主分享资源
7天前 #2楼
911degrees
隐世仙人♂
非常感谢,谢谢分享
7天前 #3楼
游客组