conanlcg
超级版主

[更 早] [欧美] [剧情] [BD-1080P] 鱿鱼和鲸/亲情难了 The.Squid.and.the.Whale.2005.REMASTERED.1080p.BluRay.x264-HD4U 7.94GB

-->

帖子完整标题:鱿鱼和鲸/亲情难了 The.Squid.and.the.Whale.2005.REMASTERED.1080p.BluRay.x264-HD4U 7.94GB




◎译  名 鱿鱼和鲸 / 亲情难了 / 亲情难舍(台) / 爱·对抗
◎片  名 The Squid and the Whale
◎年  代 2005
◎产  地 美国
◎类  别 剧情 / 喜剧 / 家庭
◎语  言 英语
◎上映日期 2005-09-13
◎IMDb评分 7.4/10 from 69400 users
◎IMDb链接 http://www.imdb.com/title/tt0367089
◎豆瓣评分 7.7/10 from 8457 users
◎豆瓣链接 https://movie.douban.com/subject/1437377/
◎片  长 81分钟
◎导  演 Noah Baumbach
◎编  剧 Noah Baumbach
◎主  演 欧文·克莱恩 Owen Kline
      杰夫·丹尼尔斯 Jeff Daniels
      劳拉·琳妮 Laura Linney
      杰西·艾森伯格 Jesse Eisenberg
      威廉·鲍德温 William Baldwin
      David Benger
      安娜·帕奎因 Anna Paquin
      Molly Barton
      Bo Berkman
      Matthew Kaplan
      Simon Kaplan
      Matthew Kirsch
      Daniella Markowicz
      伊丽莎白·梅里威瑟 Elizabeth Meriwether
      Ben Schrank


◎标  签 美国 | 家庭 | 独立电影 | 伦理 | 成长 | 美国电影 | 2005 | JesseEisenberg

◎简  介

  伯克曼一家正面临一场家庭危机。老爸伯纳德(杰夫·丹尼尔斯 Jeff Daniels 饰)事业正在走下坡路,曾是畅销作家的他如今变得湮没无闻,反而是妻子琼(劳拉·琳妮 Laura Linney 饰)而今在写作上声名鹊起,令伯纳德倍感落差,并选择用尖酸刻薄嘴脸面对妻子的成功,二人不得不面临婚姻破裂的结局。两个儿子必定要因父母关系受到困扰。大儿子沃尔特(杰西·艾森伯格 Jesse Eisenberg 饰)16岁了,正值青春萌动,他坚决站在父亲一边,不料自己喜欢的女生竟然上了父亲的床;小儿子弗兰克(欧文?克莱恩 Owen Kline 饰)12岁,将父母离婚视作世界末日,甚至开始喝酒,因支持母亲变得和哥哥势不两立。一家四口的不知所措深深印在两个孩子的成长里面……

◎获奖情况

  第78届奥斯卡金像奖(2006)
  最佳原创剧本(提名) 诺亚·鲍姆巴赫

  第63届金球奖(2006)
  电影类 最佳音乐/喜剧片(提名)
  电影类 音乐/喜剧片最佳男主角(提名) 杰夫·丹尼尔斯
  电影类 音乐/喜剧片最佳女主角(提名) 劳拉·琳妮

  第6届美国电影学会奖(2005)
  年度佳片



Video
ID : 1
Format : AVC
Format/Info : Advanced Video Codec
Format profile : [email protected]
Format settings, CABAC : Yes
Format settings, ReFrames : 4 frames
Codec ID : V_MPEG4/ISO/AVC
Duration : 1 h 21 min
Bit rate : 12.4 Mb/s
Width : 1 920 pixels
Height : 1 040 pixels
Display aspect ratio : 1.85:1
Frame rate mode : Constant
Frame rate : 23.976 (24000/1001) FPS
Color space : YUV
Chroma subsampling : 4:2:0
Bit depth : 8 bits
Scan type : Progressive
Bits/(Pixel*Frame) : 0.260
Stream size : 7.08 GiB (89%)
Writing library : x264 core 148 r2721 72d53ab
Encoding settings : cabac=1 / ref=4 / deblock=1:-3:-3 / analyse=0x3:0x113 / me=umh / subme=8 / psy=1 / psy_rd=1.00:0.00 / mixed_ref=1 / me_range=16 / chroma_me=1 / trellis=1 / 8x8dct=1 / cqm=0 / deadzone=21,11 / fast_pskip=1 / chroma_qp_offset=-2 / threads=24 / lookahead_threads=4 / sliced_threads=0 / nr=0 / decimate=1 / interlaced=0 / bluray_compat=0 / constrained_intra=0 / bframes=3 / b_pyramid=2 / b_adapt=1 / b_bias=0 / direct=3 / weightb=1 / open_gop=0 / weightp=2 / keyint=240 / keyint_min=24 / scenecut=40 / intra_refresh=0 / rc_lookahead=50 / rc=2pass / mbtree=1 / bitrate=12446 / ratetol=1.0 / qcomp=0.60 / qpmin=0 / qpmax=69 / qpstep=4 / cplxblur=20.0 / qblur=0.5 / ip_ratio=1.40 / aq=1:1.00
Default : Yes
Forced : No

Audio
ID : 2
Format : DTS
Format/Info : Digital Theater Systems
Mode : 16
Format settings, Endianness : Big
Codec ID : A_DTS
Duration : 1 h 21 min
Bit rate mode : Constant
Bit rate : 1 509 kb/s
Channel(s) : 6 channels
Channel positions : Front: L C R, Side: L R, LFE
Sampling rate : 48.0 kHz
Frame rate : 93.750 FPS (512 spf)
Bit depth : 24 bits
Compression mode : Lossy
Stream size : 879 MiB (11%)
Language : English
Default : Yes
Forced : No

Text #1
ID : 3
Format : UTF-8
Codec ID : S_TEXT/UTF8
Codec ID/Info : UTF-8 Plain Text
Duration : 1 h 13 min
Bit rate : 77 b/s
Count of elements : 1106
Stream size : 41.9 KiB (0%)
Language : English
Default : No
Forced : No

Text #2
ID : 4
Format : UTF-8
Codec ID : S_TEXT/UTF8
Codec ID/Info : UTF-8 Plain Text
Duration : 1 h 19 min
Bit rate : 82 b/s
Count of elements : 1267
Stream size : 48.2 KiB (0%)
Title : SDH
Language : English
Default : No
Forced : No

Menu
00:00:00.000 : en:00:00:00.000
00:09:36.284 : en:00:09:36.284
00:18:49.211 : en:00:18:49.211
00:26:26.668 : en:00:26:26.668
00:33:43.480 : en:00:33:43.480
00:42:06.482 : en:00:42:06.482
00:47:18.294 : en:00:47:18.294
00:53:19.363 : en:00:53:19.363
00:58:58.493 : en:00:58:58.493
01:02:59.317 : en:01:02:59.317
01:11:42.423 : en:01:11:42.423





1 个附件 售价 大小 下载 时间

The.Squid.and.the.Whale.2005.REMASTERED.1080p.BluRay.x264-HD4U.torrent 0 金币 79.92K 504 次 7天前

#1楼
发帖时间:2019-06-13 02:13:22   |   回复数:2
liyouchai
超凡入圣№
谢谢楼主分享资源
7天前 #2楼
911degrees
隐世仙人♂
非常感谢,谢谢分享
7天前 #3楼
游客组