aoloffline
版主

[2018] [日本] [动画] [WEB-1080P] [ВТ下载]龙珠超:布罗利 2018.1080p.AMZN.WEBRip.DDP5.1.x264-U3Web 4.81GB

-->

Dragon.Ball.Super.Broly.2018.JAPANESE.1080p.AMZN.WEBRip.DDP5.1.x264-U3Web


◎译  名 龙珠超:布罗利 / Dragon Ball Super : Borly / 龍珠超劇場版:布洛尼(港)

◎片  名 ドラゴンボール超 ブロリー

◎年  代 2018

◎产  地 日本

◎类  别 动画

◎语  言 日语

◎上映日期 2018-12-14(日本)

◎IMDb评分 8.3/10 from 11009 users

◎IMDb链接 http://www.imdb.com/title/tt7961060

◎豆瓣评分 8.5/10 from 1942 users

◎豆瓣链接 https://movie.douban.com/subject/27607378/

◎BT之家整理 http://www.51btbtt.com/

◎片  长 120分钟

◎导  演 长峰达也 Tatsuya Nagamine

◎编  剧 鸟山明 Akira Toriyama

◎主  演 野泽雅子 Masako Nozawa

      堀川亮 Ryô Horikawa

      中尾隆圣 Ryûsei Nakao

      岛田敏 Bin Shimada

      古川登志夫 Toshio Furukawa

      久川绫 Aya Hisakawa

      山寺宏一 Kôichi Yamadera

      森田成一 Masakazu Morita

      水树奈奈 Nana Mizuki

      杉田智和 Tomokazu Sugita

      宝龟克寿 Katsuhisa Hôki



◎标  签 龙珠 | 剧场版 | 龙珠情怀 | 日本 | 动画 | 动作 | 赛亚人白神 | 東映


◎简  介  


  《龙珠超:布罗利》是一个全新的「赛亚人」故事,剧情将会延续即将结束的电视动画《七龙珠》,关于布罗利和悟空之间的故事。「力之大会」之后,悟空了解到宇宙中还存在着自己未曾见过的强者,于是每天都为了变得更强而不断努力修行。某天,现身于悟空和贝吉达面前的是从未见过的赛亚人「布罗利」。本该随着行星的消灭而近乎灭亡的赛亚人,为何会在地球?而从地狱中再度归来的弗利沙军也被卷入其中?三个走上了完全不同道路的赛亚人在相遇后,将引起一场壮烈的战斗……


◎获奖情况  


  第42届日本电影学院奖(2019)

  最佳动画片(提名)



Video
ID : 1
Format : AVC
Format/Info : Advanced Video Codec
Format profile : [email protected]
Format settings : CABAC / 4 Ref Frames
Format settings, CABAC : Yes
Format settings, ReFrames : 4 frames
Codec ID : V_MPEG4/ISO/AVC
Duration : 1 h 40 min
Bit rate mode : Constant
Bit rate : 6 248 kb/s
Nominal bit rate : 10 000 kb/s
Width : 1 920 pixels
Height : 1 080 pixels
Display aspect ratio : 16:9
Frame rate mode : Constant
Frame rate : 23.976 (24000/1001) FPS
Color space : YUV
Chroma subsampling : 4:2:0
Bit depth : 8 bits
Scan type : Progressive
Bits/(Pixel*Frame) : 0.126
Stream size : 4.37 GiB (91%)
Language : Japanese
Default : Yes
Forced : No
Color range : Limited
Color primaries : BT.709
Transfer characteristics : BT.709
Matrix coefficients : BT.709

Audio
ID : 2
Format : E-AC-3
Format/Info : Enhanced AC-3
Commercial name : Dolby Digital Plus
Codec ID : A_EAC3
Duration : 1 h 40 min
Bit rate mode : Constant
Bit rate : 640 kb/s
Channel(s) : 6 channels
Channel layout : L R C LFE Ls Rs
Sampling rate : 48.0 kHz
Frame rate : 31.250 FPS (1536 SPF)
Compression mode : Lossy
Stream size : 458 MiB (9%)
Language : Japanese
Service kind : Complete Main
Default : Yes
Forced : No

Text
ID : 3
Format : UTF-8
Codec ID : S_TEXT/UTF8
Codec ID/Info : UTF-8 Plain Text
Duration : 1 h 35 min
Bit rate : 49 b/s
Count of elements : 994
Stream size : 34.4 KiB (0%)
Title : English
Language : English
Default : Yes
Forced : No



1 个附件 售价 大小 下载 时间

Dragon.Ball.Super.Broly.2018.JAPANESE.1080p.AMZN.WEBRip.DDP5.1.x264-U3Web[btbtt.me].torrent 0 金币 48.70K 6066 次 2月前

#1楼
发帖时间:2019-02-13 00:57:59   |   回复数:4
911degrees
隐世仙人♂
非常感谢,谢谢分享
2月前 #2楼
feung18
武林高手
太好了,感謝發佈!!
2月前 #3楼
liyouchai
超凡入圣№
谢谢楼主分享资源
2月前 #4楼
ff8590
武林高手
感谢楼主分享
1月前 #5楼
游客组