aoloffline
版主

[更 早] [香港] [动作] [BD-1080P] [ВТ下载]精武门 1972.RE.1080p.BluRay.x264.DTS-FGT 9.7GB

-->

Fist.of.Fury.1972.REMASTERED.CHINESE.1080p.BluRay.x264.DTS-FGT

◎译  名 精武门 / Fist of Fury

◎片  名 精武門

◎年  代 1972

◎产  地 香港

◎类  别 剧情 / 动作 / 爱情 / 惊悚

◎语  言 粤语 / 英语

◎上映日期 1972-03-22

◎IMDb评分 7.4/10 from 22103 users

◎IMDb链接 http://www.imdb.com/title/tt0068767

◎豆瓣评分 8.4/10 from 19978 users

◎豆瓣链接 https://movie.douban.com/subject/1294991/

◎BT之家整理 http://www.51btbtt.com/

◎片  长 102分钟

◎导  演 罗维

◎编  剧 罗维 / 倪匡 Kuang Ni

◎主  演 李小龙

      苗可秀

      田俊

      田丰




◎简  介  


  一代武术宗师、精武门创始人霍元甲突然逝世,霍师傅生前最喜爱的五徒弟陈真(李小龙 饰)匆匆赶回奔丧,在师傅的棺椁前,陈真悲痛欲绝,暂时终止了和小师妹(苗可秀 饰)完婚的计划,并且不相信师傅死于胃病和感冒的结论。日本虹口道场馆主铃木宽在霍师傅头七之日,派人送上写有“东亚病夫 ”的牌匾,并且出言大肆侮辱精武门,被激怒的陈真随后赶到虹口道场,大败众日本武人,并踢碎了租界公园门口“华人与狗不得入内”的招牌。虹口道场马上派人至精武馆报复,陈真为避免连累师门只得暂离精武门。机缘巧合,陈真发现了日本人害死师傅的证据,他怒不可遏,连毙数名凶手,成为日本人的眼中钉,为了保全精武门,陈真选择独立承担,他在租界外国势力的枪口前纵身跃起……


◎获奖情况  


  第10届台北金马影展(1972)

  金马奖 最佳剧情片(提名)

  金马奖 最佳剪辑 张耀宗

  金马奖 最佳演员特別奖 李小龙


Video
ID : 1
Format : AVC
Format/Info : Advanced Video Codec
Format profile : [email protected]
Format settings : CABAC / 4 Ref Frames
Format settings, CABAC : Yes
Format settings, ReFrames : 4 frames
Codec ID : V_MPEG4/ISO/AVC
Duration : 1 h 46 min
Bit rate : 11.5 Mb/s
Width : 1 920 pixels
Height : 820 pixels
Display aspect ratio : 2.35:1
Frame rate mode : Constant
Frame rate : 23.976 (24000/1001) FPS
Color space : YUV
Chroma subsampling : 4:2:0
Bit depth : 8 bits
Scan type : Progressive
Bits/(Pixel*Frame) : 0.305
Stream size : 8.57 GiB (88%)
Title : Fist.of.Fury.1972.REMASTERED.CHINESE.1080p.BluRay.x264.DTS-FGT
Writing library : x264 core 148 r2795M aaa9aa8
Encoding settings : cabac=1 / ref=4 / deblock=1:-2:-2 / analyse=0x3:0x113 / me=umh / subme=9 / psy=1 / psy_rd=1.00:0.15 / mixed_ref=1 / me_range=16 / chroma_me=1 / trellis=2 / 8x8dct=1 / cqm=0 / deadzone=21,11 / fast_pskip=1 / chroma_qp_offset=-3 / threads=72 / lookahead_threads=3 / sliced_threads=0 / nr=0 / decimate=1 / interlaced=0 / bluray_compat=0 / constrained_intra=0 / bframes=3 / b_pyramid=2 / b_adapt=1 / b_bias=0 / direct=3 / weightb=1 / open_gop=0 / weightp=2 / keyint=250 / keyint_min=25 / scenecut=40 / intra_refresh=0 / rc_lookahead=50 / rc=2pass / mbtree=1 / bitrate=11500 / ratetol=1.0 / qcomp=0.60 / qpmin=0 / qpmax=69 / qpstep=4 / cplxblur=20.0 / qblur=0.5 / vbv_maxrate=31250 / vbv_bufsize=31250 / nal_hrd=none / filler=0 / ip_ratio=1.40 / aq=1:1.00
Language : English
Default : Yes
Forced : No

Audio
ID : 2
Format : DTS
Format/Info : Digital Theater Systems
Codec ID : A_DTS
Duration : 1 h 46 min
Bit rate mode : Constant
Bit rate : 1 509 kb/s
Channel(s) : 6 channels
Channel layout : C L R Ls Rs LFE
Sampling rate : 48.0 kHz
Frame rate : 93.750 FPS (512 SPF)
Bit depth : 24 bits
Compression mode : Lossy
Stream size : 1.12 GiB (12%)
Title : Fist.of.Fury.1972.REMASTERED.CHINESE.1080p.BluRay.x264.DTS-FGT
Language : Chinese
Default : No
Forced : No

Text
ID : 3
Format : UTF-8
Codec ID : S_TEXT/UTF8
Codec ID/Info : UTF-8 Plain Text
Duration : 1 h 44 min
Bit rate : 24 b/s
Count of elements : 682
Stream size : 19.0 KiB (0%)
Language : English
Default : Yes
Forced : Yes

Menu
00:00:00.000 : en:Chapter 01
00:05:41.924 : en:Chapter 02
00:10:47.438 : en:Chapter 03
00:25:38.161 : en:Chapter 04
00:38:16.502 : en:Chapter 05
00:48:55.557 : en:Chapter 06
01:01:01.449 : en:Chapter 07
01:08:47.414 : en:Chapter 08
01:16:29.209 : en:Chapter 09
01:23:48.648 : en:Chapter 10
01:29:14.724 : en:Chapter 11
01:39:40.808 : en:Chapter 12



1 个附件 售价 大小 下载 时间

Fist.of.Fury.1972.REMASTERED.CHINESE.1080p.BluRay.x264.DTS-FGT[btbtt.me].torrent 0 金币 49.04K 1295 次 2月前

#1楼
发帖时间:2019-02-12 23:36:12   |   回复数:4
liyouchai
超凡入圣№
谢谢楼主分享资源
2月前 #2楼
911degrees
隐世仙人♂
非常感谢,谢谢分享
2月前 #3楼
yangbo83222179
一代宗师
谢谢楼主分享,支持一下
2月前 #4楼
jokingcheung
一代宗师
谢谢分享
2月前 #5楼
游客组