aoloffline
版主

[更 早] [香港] [动作] [4K-Remux] [ВТ下载]精武门 1972.2160p.BluRay.REMUX.HEVC.SDR.DTS-HD.MA.6.1-FGT 49GB

-->

Fist.of.Fury.1972.CHINESE.2160p.BluRay.REMUX.HEVC.SDR.DTS-HD.MA.6.1-FGT

◎译  名 精武门 / Fist of Fury

◎片  名 精武門

◎年  代 1972

◎产  地 香港

◎类  别 剧情 / 动作 / 爱情 / 惊悚

◎语  言 粤语 / 英语

◎上映日期 1972-03-22

◎IMDb评分 7.4/10 from 22103 users

◎IMDb链接 http://www.imdb.com/title/tt0068767

◎豆瓣评分 8.4/10 from 19978 users

◎豆瓣链接 https://movie.douban.com/subject/1294991/

◎BT之家整理 http://www.51btbtt.com/

◎片  长 102分钟

◎导  演 罗维

◎编  剧 罗维 / 倪匡 Kuang Ni

◎主  演 李小龙

      苗可秀

      田俊

      田丰




◎简  介  


  一代武术宗师、精武门创始人霍元甲突然逝世,霍师傅生前最喜爱的五徒弟陈真(李小龙 饰)匆匆赶回奔丧,在师傅的棺椁前,陈真悲痛欲绝,暂时终止了和小师妹(苗可秀 饰)完婚的计划,并且不相信师傅死于胃病和感冒的结论。日本虹口道场馆主铃木宽在霍师傅头七之日,派人送上写有“东亚病夫 ”的牌匾,并且出言大肆侮辱精武门,被激怒的陈真随后赶到虹口道场,大败众日本武人,并踢碎了租界公园门口“华人与狗不得入内”的招牌。虹口道场马上派人至精武馆报复,陈真为避免连累师门只得暂离精武门。机缘巧合,陈真发现了日本人害死师傅的证据,他怒不可遏,连毙数名凶手,成为日本人的眼中钉,为了保全精武门,陈真选择独立承担,他在租界外国势力的枪口前纵身跃起……


◎获奖情况  


  第10届台北金马影展(1972)

  金马奖 最佳剧情片(提名)

  金马奖 最佳剪辑 张耀宗

  金马奖 最佳演员特別奖 李小龙


Video
ID : 1
Format : HEVC
Format/Info : High Efficiency Video Coding
Format profile : Main [email protected]@High
Codec ID : V_MPEGH/ISO/HEVC
Duration : 1 h 46 min
Bit rate : 56.0 Mb/s
Width : 3 840 pixels
Height : 2 160 pixels
Display aspect ratio : 16:9
Frame rate mode : Constant
Frame rate : 23.976 (24000/1001) FPS
Original frame rate : 23.976 (23976/1000) FPS
Standard : Component
Color space : YUV
Chroma subsampling : 4:2:0
Bit depth : 10 bits
Bits/(Pixel*Frame) : 0.282
Stream size : 41.8 GiB (85%)
Title : Fist.of.Fury.1972.CHINESE.2160p.BluRay.REMUX.HEVC.SDR.DTS-HD.6.1-FGT
Default : Yes
Forced : No
Color range : Limited
Color primaries : BT.709
Transfer characteristics : BT.709
Matrix coefficients : BT.709

Audio #1
ID : 2
Format : DTS ES XXCH XLL
Format/Info : Digital Theater Systems
Commercial name : DTS-HD Master Audio
Codec ID : A_DTS
Duration : 1 h 46 min
Bit rate mode : Variable
Bit rate : 4 049 kb/s
Channel(s) : 7 channels
Channel layout : C L R Ls Rs LFE Cb
Sampling rate : 48.0 kHz
Frame rate : 93.750 FPS (512 SPF)
Bit depth : 24 bits
Compression mode : Lossless
Stream size : 3.02 GiB (6%)
Title : Fist.of.Fury.1972.CHINESE.2160p.BluRay.REMUX.HEVC.SDR.DTS-HD.6.1-FGT
Language : Chinese
Default : Yes
Forced : No

Audio #2
ID : 3
Format : DTS
Format/Info : Digital Theater Systems
Codec ID : A_DTS
Duration : 1 h 46 min
Bit rate mode : Constant
Bit rate : 768 kb/s
Channel(s) : 2 channels
Channel layout : Lt Rt
Sampling rate : 48.0 kHz
Frame rate : 93.750 FPS (512 SPF)
Bit depth : 16 bits
Compression mode : Lossy
Stream size : 587 MiB (1%)
Title : Fist.of.Fury.1972.CHINESE.2160p.BluRay.REMUX.HEVC.SDR.DTS-HD.6.1-FGT
Language : Chinese
Default : No
Forced : No

Audio #3
ID : 4
Format : DTS
Format/Info : Digital Theater Systems
Codec ID : A_DTS
Duration : 1 h 46 min
Bit rate mode : Constant
Bit rate : 768 kb/s
Channel(s) : 2 channels
Channel layout : Lt Rt
Sampling rate : 48.0 kHz
Frame rate : 93.750 FPS (512 SPF)
Bit depth : 16 bits
Compression mode : Lossy
Stream size : 587 MiB (1%)
Title : Fist.of.Fury.1972.CHINESE.2160p.BluRay.REMUX.HEVC.SDR.DTS-HD.6.1-FGT
Language : Chinese
Default : No
Forced : No

Audio #4
ID : 5
Format : DTS XLL
Format/Info : Digital Theater Systems
Commercial name : DTS-HD Master Audio
Codec ID : A_DTS
Duration : 1 h 46 min
Bit rate mode : Variable
Bit rate : 4 323 kb/s
Channel(s) : 8 channels
Channel layout : C L R LFE Lb Rb Lss Rss
Sampling rate : 48.0 kHz
Frame rate : 93.750 FPS (512 SPF)
Bit depth : 24 bits
Compression mode : Lossless
Stream size : 3.23 GiB (7%)
Title : Fist.of.Fury.1972.CHINESE.2160p.BluRay.REMUX.HEVC.SDR.DTS-HD.6.1-FGT
Language : French
Default : No
Forced : No

Text #1
ID : 6
Format : UTF-8
Codec ID : S_TEXT/UTF8
Codec ID/Info : UTF-8 Plain Text
Duration : 1 h 44 min
Bit rate : 24 b/s
Count of elements : 682
Stream size : 19.0 KiB (0%)
Title : English-SRT
Language : English
Default : Yes
Forced : Yes

Text #2
ID : 7
Format : PGS
Muxing mode : zlib
Codec ID : S_HDMV/PGS
Codec ID/Info : Picture based subtitle format used on BDs/HD-DVDs
Duration : 44 min 59 s
Bit rate : 1 078 b/s
Count of elements : 36
Stream size : 355 KiB (0%)
Title : French-PGS
Language : French
Default : No
Forced : No

Text #3
ID : 8
Format : PGS
Muxing mode : zlib
Codec ID : S_HDMV/PGS
Codec ID/Info : Picture based subtitle format used on BDs/HD-DVDs
Duration : 1 h 45 min
Bit rate : 20.6 kb/s
Count of elements : 1482
Stream size : 15.6 MiB (0%)
Title : French-PGS
Language : French
Default : No
Forced : No

Text #4
ID : 9
Format : PGS
Muxing mode : zlib
Codec ID : S_HDMV/PGS
Codec ID/Info : Picture based subtitle format used on BDs/HD-DVDs
Duration : 1 h 45 min
Bit rate : 20.8 kb/s
Count of elements : 1498
Stream size : 15.7 MiB (0%)
Title : French-PGS
Language : French
Default : No
Forced : No

Menu
00:00:00.000 : :Chapter 1
00:08:54.409 : :Chapter 2
00:15:59.584 : :Chapter 3
00:26:20.080 : :Chapter 4
00:38:31.353 : :Chapter 5
00:45:21.137 : :Chapter 6
00:56:58.793 : :Chapter 7
01:01:16.968 : :Chapter 8
01:09:02.934 : :Chapter 9
01:16:27.253 : :Chapter 10
01:24:50.215 : :Chapter 11
01:36:40.342 : :Chapter 12



1 个附件 售价 大小 下载 时间

Fist.of.Fury.1972.CHINESE.2160p.BluRay.REMUX.HEVC.SDR.DTS-HD.MA.6.1-FGT[btbtt.me].torrent 0 金币 123.70K 1253 次 2月前

#1楼
发帖时间:2019-02-12 23:34:53   |   回复数:4
liyouchai
超凡入圣№
谢谢楼主分享资源
2月前 #2楼
911degrees
隐世仙人♂
非常感谢,谢谢分享
2月前 #3楼
tanchoohoon
武林盟主
感谢楼主分享
2月前 #4楼
jokingcheung
一代宗师
谢谢分享
2月前 #5楼
游客组