aoloffline
版主

[更 早] [香港] [动作] [BD-Remux] [ВТ下载]精武门 1972.RE.1080p.BluRay.REMUX.AVC.DTS-HD.MA.5.1-FGT 32GB

-->

Fist.of.Fury.1972.REMASTERED.CHINESE.1080p.BluRay.REMUX.AVC.DTS-HD.MA.5.1-FGT

◎译  名 徒手攀岩 / National Geographic: Free Solo

◎片  名 Free Solo

◎年  代 2018

◎产  地 美国

◎类  别 纪录片

◎语  言 英语

◎上映日期 2018-09-28(美国)

◎IMDb评分 8.6/10 from 5218 users

◎IMDb链接 http://www.imdb.com/title/tt7775622

◎豆瓣评分 9.2/10 from 779 users

◎豆瓣链接 https://movie.douban.com/subject/30167509/

◎BT之家整理 http://www.51btbtt.com/

◎片  长 97分钟

◎导  演 金国威 Jimmy Chin / 伊丽莎白·柴·瓦沙瑞莉 Elizabeth Chai Vasarhelyi

◎主  演 Alex Honnold




◎简  介  


  From award-winning documentary filmmaker E. Chai Vasarhelyi (“MERU”) and world-renowned photographer and mountaineer Jimmy Chin comes National Geographic Documentary Film’s FREE SOLO, a stunning, intimate and unflinching portrait of the free soloist climber Alex Honnold, as he prepares to achieve his lifelong dream: climbing the face of the world’s most famous rock...the 3,000ft El Capitan in Yosemite National Park…without a rope.

Celebrated as one of the greatest athletic feats of any kind, Honnold’s climb set the ultimate standard: perfection or death. Succeeding in this challenge, Honnold enters his story in the annals of human achievement. FREE SOLO is both an edge-of-your seat thriller and an inspiring portrait of an athlete who exceeded our current understanding of human physical and mental potential. The result is a triumph of the human spirit.


◎获奖情况  


  第91届奥斯卡金像奖(2019)

  最佳纪录长片(提名) 埃文·海耶斯 / 香农·迪尔 / 伊丽莎白·柴·瓦沙瑞莉 / 金国威


  第72届英国电影学院奖(2019)

  电影奖 最佳纪录片


  第43届多伦多国际电影节(2018)

  观众选择奖 纪录片单元


  第71届美国导演工会奖(2019)

  最佳纪录片导演(提名) 伊丽莎白·柴·瓦沙瑞莉 / 金国威


  第30届美国制片人工会奖(2019)

  最佳纪录片制片人奖(提名)


  第69届美国剪辑工会奖(2019)

  纪录片最佳剪辑 Bob Eisenhardt


  第66届美国音效剪辑协会奖(2019)

  金卷轴奖 最佳纪录片音效剪辑(提名)


  第55届美国声音效果协会奖(2019)

  纪录片最佳音效(提名)


  第90届美国国家评论协会奖(2018)

  五佳纪录片


  第23届金卫星奖(2019)

  电影部门 最佳纪录片(提名)


  第17届华盛顿影评人协会奖(2018)

  最佳纪录片(提名)


  第31届芝加哥影评人协会奖(2018)

  最佳纪录片(提名)


  第17届旧金山影评人协会奖(2018)

  最佳纪录片(提名)


  第18届温哥华影评人协会奖(2019)

  最佳纪录片(提名)


  第52届堪萨斯影评人协会奖(2018)

  最佳纪录片(提名)


  第22届美国在线影评人协会奖(2019)

  最佳纪录片(提名)


Video
ID : 1
Format : AVC
Format/Info : Advanced Video Codec
Format profile : [email protected]
Format settings : CABAC / 4 Ref Frames
Format settings, CABAC : Yes
Format settings, ReFrames : 4 frames
Codec ID : V_MPEG4/ISO/AVC
Duration : 1 h 46 min
Bit rate mode : Constant
Bit rate : 30.0 Mb/s
Width : 1 920 pixels
Height : 1 080 pixels
Display aspect ratio : 16:9
Frame rate mode : Constant
Frame rate : 23.976 (24000/1001) FPS
Color space : YUV
Chroma subsampling : 4:2:0
Bit depth : 8 bits
Scan type : Progressive
Bits/(Pixel*Frame) : 0.603
Stream size : 21.9 GiB (66%)
Title : Fist.of.Fury.1972.REMASTERED.CHINESE.1080p.BluRay.REMUX.AVC.DTS-HD.MA.5.1-FGT
Language : English
Default : No
Forced : No

Audio #1
ID : 2
Format : DTS XLL
Format/Info : Digital Theater Systems
Commercial name : DTS-HD Master Audio
Codec ID : A_DTS
Duration : 1 h 46 min
Bit rate mode : Variable
Bit rate : 2 243 kb/s
Channel(s) : 6 channels
Channel layout : C L R Ls Rs LFE
Sampling rate : 48.0 kHz
Frame rate : 93.750 FPS (512 SPF)
Bit depth : 24 bits
Compression mode : Lossless
Stream size : 1.67 GiB (5%)
Title : Fist.of.Fury.1972.REMASTERED.CHINESE.1080p.BluRay.REMUX.AVC.DTS-HD.MA.5.1-FGT
Language : Chinese
Default : Yes
Forced : No

Audio #2
ID : 3
Format : DTS
Format/Info : Digital Theater Systems
Codec ID : A_DTS
Duration : 1 h 46 min
Bit rate mode : Constant
Bit rate : 1 509 kb/s
Channel(s) : 6 channels
Channel layout : C L R Ls Rs LFE
Sampling rate : 48.0 kHz
Frame rate : 93.750 FPS (512 SPF)
Bit depth : 24 bits
Compression mode : Lossy
Stream size : 1.12 GiB (3%)
Title : Fist.of.Fury.1972.REMASTERED.CHINESE.1080p.BluRay.REMUX.AVC.DTS-HD.MA.5.1-FGT
Language : Chinese
Default : No
Forced : No

Audio #3
ID : 4
Format : AC-3
Format/Info : Audio Coding 3
Commercial name : Dolby Digital
Codec ID : A_AC3
Duration : 1 h 46 min
Bit rate mode : Constant
Bit rate : 192 kb/s
Channel(s) : 2 channels
Channel layout : L R
Sampling rate : 48.0 kHz
Frame rate : 31.250 FPS (1536 SPF)
Bit depth : 16 bits
Compression mode : Lossy
Stream size : 147 MiB (0%)
Title : Fist.of.Fury.1972.REMASTERED.CHINESE.1080p.BluRay.REMUX.AVC.DTS-HD.MA.5.1-FGT
Language : Chinese
Service kind : Complete Main
Default : No
Forced : No

Audio #4
ID : 5
Format : DTS XLL
Format/Info : Digital Theater Systems
Commercial name : DTS-HD Master Audio
Codec ID : A_DTS
Duration : 1 h 46 min
Bit rate mode : Variable
Bit rate : 2 463 kb/s
Channel(s) : 6 channels
Channel layout : C L R Ls Rs LFE
Sampling rate : 48.0 kHz
Frame rate : 93.750 FPS (512 SPF)
Bit depth : 24 bits
Compression mode : Lossless
Stream size : 1.84 GiB (6%)
Title : Fist.of.Fury.1972.REMASTERED.CHINESE.1080p.BluRay.REMUX.AVC.DTS-HD.MA.5.1-FGT
Language : Chinese
Default : No
Forced : No

Audio #5
ID : 6
Format : DTS
Format/Info : Digital Theater Systems
Codec ID : A_DTS
Duration : 1 h 46 min
Bit rate mode : Constant
Bit rate : 1 509 kb/s
Channel(s) : 6 channels
Channel layout : C L R Ls Rs LFE
Sampling rate : 48.0 kHz
Frame rate : 93.750 FPS (512 SPF)
Bit depth : 24 bits
Compression mode : Lossy
Stream size : 1.12 GiB (3%)
Title : Fist.of.Fury.1972.REMASTERED.CHINESE.1080p.BluRay.REMUX.AVC.DTS-HD.MA.5.1-FGT
Language : Chinese
Default : No
Forced : No

Audio #6
ID : 7
Format : AC-3
Format/Info : Audio Coding 3
Commercial name : Dolby Digital
Codec ID : A_AC3
Duration : 1 h 46 min
Bit rate mode : Constant
Bit rate : 96.0 kb/s
Channel(s) : 1 channel
Channel layout : C
Sampling rate : 48.0 kHz
Frame rate : 31.250 FPS (1536 SPF)
Bit depth : 16 bits
Compression mode : Lossy
Stream size : 73.3 MiB (0%)
Title : Fist.of.Fury.1972.REMASTERED.CHINESE.1080p.BluRay.REMUX.AVC.DTS-HD.MA.5.1-FGT
Language : English
Service kind : Complete Main
Default : No
Forced : No

Audio #7
ID : 8
Format : DTS XLL
Format/Info : Digital Theater Systems
Commercial name : DTS-HD Master Audio
Codec ID : A_DTS
Duration : 1 h 46 min
Bit rate mode : Variable
Bit rate : 2 215 kb/s
Channel(s) : 6 channels
Channel layout : C L R Ls Rs LFE
Sampling rate : 48.0 kHz
Frame rate : 93.750 FPS (512 SPF)
Bit depth : 24 bits
Compression mode : Lossless
Stream size : 1.65 GiB (5%)
Title : Fist.of.Fury.1972.REMASTERED.CHINESE.1080p.BluRay.REMUX.AVC.DTS-HD.MA.5.1-FGT
Language : English
Default : No
Forced : No

Audio #8
ID : 9
Format : DTS
Format/Info : Digital Theater Systems
Codec ID : A_DTS
Duration : 1 h 46 min
Bit rate mode : Constant
Bit rate : 1 509 kb/s
Channel(s) : 6 channels
Channel layout : C L R Ls Rs LFE
Sampling rate : 48.0 kHz
Frame rate : 93.750 FPS (512 SPF)
Bit depth : 24 bits
Compression mode : Lossy
Stream size : 1.12 GiB (3%)
Title : Fist.of.Fury.1972.REMASTERED.CHINESE.1080p.BluRay.REMUX.AVC.DTS-HD.MA.5.1-FGT
Language : English
Default : No
Forced : No

Audio #9
ID : 10
Format : DTS XLL
Format/Info : Digital Theater Systems
Commercial name : DTS-HD Master Audio
Codec ID : A_DTS
Duration : 1 h 46 min
Bit rate mode : Variable
Bit rate : 1 582 kb/s
Channel(s) : 2 channels
Channel layout : L R
Sampling rate : 48.0 kHz
Frame rate : 93.750 FPS (512 SPF)
Bit depth : 24 bits
Compression mode : Lossless
Stream size : 1.18 GiB (4%)
Title : Fist.of.Fury.1972.REMASTERED.CHINESE.1080p.BluRay.REMUX.AVC.DTS-HD.MA.5.1-FGT
Language : English
Default : No
Forced : No

Audio #10
ID : 11
Format : DTS
Format/Info : Digital Theater Systems
Codec ID : A_DTS
Duration : 1 h 46 min
Bit rate mode : Constant
Bit rate : 1 509 kb/s
Channel(s) : 2 channels
Channel layout : L R
Sampling rate : 48.0 kHz
Frame rate : 93.750 FPS (512 SPF)
Bit depth : 24 bits
Compression mode : Lossy
Stream size : 1.12 GiB (3%)
Title : Fist.of.Fury.1972.REMASTERED.CHINESE.1080p.BluRay.REMUX.AVC.DTS-HD.MA.5.1-FGT
Language : English
Default : No
Forced : No

Text #1
ID : 12
Format : PGS
Muxing mode : zlib
Codec ID : S_HDMV/PGS
Codec ID/Info : Picture based subtitle format used on BDs/HD-DVDs
Duration : 1 h 44 min
Bit rate : 22.3 kb/s
Count of elements : 954
Stream size : 16.6 MiB (0%)
Title : English-PGS
Language : English
Default : Yes
Forced : No

Text #2
ID : 13
Format : PGS
Muxing mode : zlib
Codec ID : S_HDMV/PGS
Codec ID/Info : Picture based subtitle format used on BDs/HD-DVDs
Duration : 1 h 43 min
Bit rate : 22.6 kb/s
Count of elements : 961
Stream size : 16.7 MiB (0%)
Title : English-PGS
Language : English
Default : No
Forced : No

Text #3
ID : 14
Format : PGS
Muxing mode : zlib
Codec ID : S_HDMV/PGS
Codec ID/Info : Picture based subtitle format used on BDs/HD-DVDs
Duration : 1 h 44 min
Bit rate : 42.1 kb/s
Count of elements : 2556
Stream size : 31.6 MiB (0%)
Title : English-PGS
Language : English
Default : No
Forced : No

Menu
00:00:00.000 : en:Chapter 01
00:05:41.924 : en:Chapter 02
00:10:47.438 : en:Chapter 03
00:25:38.161 : en:Chapter 04
00:38:16.502 : en:Chapter 05
00:48:55.557 : en:Chapter 06
01:01:01.449 : en:Chapter 07
01:08:47.414 : en:Chapter 08
01:16:29.209 : en:Chapter 09
01:23:48.648 : en:Chapter 10
01:29:14.724 : en:Chapter 11
01:39:40.808 : en:Chapter 12



1 个附件 售价 大小 下载 时间

Fist.of.Fury.1972.REMASTERED.CHINESE.1080p.BluRay.REMUX.AVC.DTS-HD.MA.5.1-FGT[btbtt.me].torrent 0 金币 83.00K 1316 次 6月前

#1楼
发帖时间:2019-02-12 23:31:41   |   回复数:3
liyouchai
隐世仙人♂
谢谢楼主分享资源
6月前 #2楼
911degrees
隐世仙人♂
非常感谢,谢谢分享
6月前 #3楼
jokingcheung
一代宗师
谢谢分享
6月前 #4楼
游客组