aoloffline
版主

[2018] [欧美] [纪录] [WEB-720P] [ВТ下载]徒手攀岩 Free.Solo.2018.720p.AMZN.WEBRip.DDP5.1.x264-NTG 3.68GB

-->

Free.Solo.2018.720p.AMZN.WEBRip.DDP5.1.x264-NTG


◎译  名 徒手攀岩 / National Geographic: Free Solo

◎片  名 Free Solo

◎年  代 2018

◎产  地 美国

◎类  别 纪录片

◎语  言 英语

◎上映日期 2018-09-28(美国)

◎IMDb评分 8.6/10 from 5218 users

◎IMDb链接 http://www.imdb.com/title/tt7775622

◎豆瓣评分 9.2/10 from 779 users

◎豆瓣链接 https://movie.douban.com/subject/30167509/

◎BT之家整理 http://www.51btbtt.com/

◎片  长 97分钟

◎导  演 金国威 Jimmy Chin / 伊丽莎白·柴·瓦沙瑞莉 Elizabeth Chai Vasarhelyi

◎主  演 Alex Honnold




◎简  介  


  From award-winning documentary filmmaker E. Chai Vasarhelyi (“MERU”) and world-renowned photographer and mountaineer Jimmy Chin comes National Geographic Documentary Film’s FREE SOLO, a stunning, intimate and unflinching portrait of the free soloist climber Alex Honnold, as he prepares to achieve his lifelong dream: climbing the face of the world’s most famous rock...the 3,000ft El Capitan in Yosemite National Park…without a rope.

Celebrated as one of the greatest athletic feats of any kind, Honnold’s climb set the ultimate standard: perfection or death. Succeeding in this challenge, Honnold enters his story in the annals of human achievement. FREE SOLO is both an edge-of-your seat thriller and an inspiring portrait of an athlete who exceeded our current understanding of human physical and mental potential. The result is a triumph of the human spirit.


◎获奖情况  


  第91届奥斯卡金像奖(2019)

  最佳纪录长片(提名) 埃文·海耶斯 / 香农·迪尔 / 伊丽莎白·柴·瓦沙瑞莉 / 金国威


  第72届英国电影学院奖(2019)

  电影奖 最佳纪录片


  第43届多伦多国际电影节(2018)

  观众选择奖 纪录片单元


  第71届美国导演工会奖(2019)

  最佳纪录片导演(提名) 伊丽莎白·柴·瓦沙瑞莉 / 金国威


  第30届美国制片人工会奖(2019)

  最佳纪录片制片人奖(提名)


  第69届美国剪辑工会奖(2019)

  纪录片最佳剪辑 Bob Eisenhardt


  第66届美国音效剪辑协会奖(2019)

  金卷轴奖 最佳纪录片音效剪辑(提名)


  第55届美国声音效果协会奖(2019)

  纪录片最佳音效(提名)


  第90届美国国家评论协会奖(2018)

  五佳纪录片


  第23届金卫星奖(2019)

  电影部门 最佳纪录片(提名)


  第17届华盛顿影评人协会奖(2018)

  最佳纪录片(提名)


  第31届芝加哥影评人协会奖(2018)

  最佳纪录片(提名)


  第17届旧金山影评人协会奖(2018)

  最佳纪录片(提名)


  第18届温哥华影评人协会奖(2019)

  最佳纪录片(提名)


  第52届堪萨斯影评人协会奖(2018)

  最佳纪录片(提名)


  第22届美国在线影评人协会奖(2019)

  最佳纪录片(提名)


Video
ID : 1
Format : AVC
Format/Info : Advanced Video Codec
Format profile : High@L3.1
Format settings : CABAC / 4 Ref Frames
Format settings, CABAC : Yes
Format settings, ReFrames : 4 frames
Codec ID : V_MPEG4/ISO/AVC
Duration : 1 h 40 min
Bit rate mode : Constant
Bit rate : 4 617 kb/s
Nominal bit rate : 6 000 kb/s
Width : 1 280 pixels
Height : 688 pixels
Display aspect ratio : 1.85:1
Frame rate mode : Constant
Frame rate : 23.976 (24000/1001) FPS
Color space : YUV
Chroma subsampling : 4:2:0
Bit depth : 8 bits
Scan type : Progressive
Bits/(Pixel*Frame) : 0.219
Stream size : 3.23 GiB (88%)
Default : Yes
Forced : No
Color range : Limited
Color primaries : BT.709
Transfer characteristics : BT.709
Matrix coefficients : BT.709

Audio
ID : 2
Format : E-AC-3
Format/Info : Enhanced AC-3
Commercial name : Dolby Digital Plus
Codec ID : A_EAC3
Duration : 1 h 40 min
Bit rate mode : Constant
Bit rate : 640 kb/s
Channel(s) : 6 channels
Channel layout : L R C LFE Ls Rs
Sampling rate : 48.0 kHz
Frame rate : 31.250 FPS (1536 SPF)
Compression mode : Lossy
Stream size : 458 MiB (12%)
Language : English
Service kind : Complete Main
Default : Yes
Forced : No

Text
ID : 3
Format : UTF-8
Codec ID : S_TEXT/UTF8
Codec ID/Info : UTF-8 Plain Text
Duration : 1 h 39 min
Bit rate : 87 b/s
Count of elements : 1366
Stream size : 63.8 KiB (0%)
Title : SDH
Language : English
Default : No
Forced : No



1 个附件 售价 大小 下载 时间

Free.Solo.2018.720p.AMZN.WEBRip.DDP5.1.x264-NTG[btbtt.me].torrent 0 金币 37.29K 679 次 6天前

#1楼
发帖时间:2019-02-12 23:21:26   |   回复数:3
liyouchai
超凡入圣№
谢谢楼主分享资源
6天前 #2楼
911degrees
隐世仙人♂
非常感谢,谢谢分享
6天前 #3楼
补补23456
小有名气
感谢分享
6天前 #4楼
游客组